extratorrent - A Fan Made Alternative Login   |   Register
Important Information
Registrations are open now
-------------------------------------

Please click here to register with Extratorrent2 to recieve latest updates, add bookmarks and to post comments.

Friends
Friends

1) ProxyFix

Extratorrent2 > Categories > TV > The.Purge.S01E08.480p.WEB.x264.ReEnc-LUMI torrent


Browse TV torrents

The.Purge.S01E08.480p.WEB.x264.ReEnc-LUMI torrent


Download torrent: Download The.Purge.S01E08.480p.WEB.x264.ReEnc-LUMI torrent Magnet link Bookmark Torrent: The.Purge.S01E08.480p.WEB.x264.ReEnc-LUMI   The.Purge.S01E08.480p.WEB.x264.ReEnc-LUMI torrent
Info hash: EB9A8290ABE5B37A22C49B690906B73D9C428F51
Category: Categories > TV
Trackers:
View all torrent trackers >
Health:
 seeds: 6 ,  leechers: 3 |  Update >
Torrent language: English English
Total Size: 132.0 MB
Files List:
1    View torrent files >
Uploader:
lumi265
Torrent added: October 30, 2018, 4:30 pm
Tags: the, purge, x264, 480p, lumi, reenc
Users rating: ---, not rated. please login to rate.

Download The.Purge.S01E08.480p.WEB.x264.ReEnc-LUMI torrent



Torrent Description

Please help by seeding for as long as possible so others can download!

If you'd like me to do more encodes, season packs, or TV shows, please contribute. Every little bit helps.

BTC: 3NK9rYXiHoX5YgDEdcxa2ukX5RoUZJhnum

Screens:




Please rate if good, and comment if there are any other resolutions or codecs you’d like me to try, or smaller size (slightly less quality?). I’m a new encoder and want to deliver what you guys want!

Note: I’m an encoder, not a ripper. I’m thankful to those who able great quality sources, allowing me to encode at lower resolutions or lower bitrates for those who want smaller filesize!

Source: the.purge.s01e08.720p.web.x264-tbs[eztv] (Thanks!)

Video
ID : 1
Format : AVC
Format/Info : Advanced Video Codec
Format profile :
Format settings : CABAC / 5 Ref Frames
Format settings, CABAC : Yes
Format settings, RefFrames : 5 frames
Codec ID : avc1
Codec ID/Info : Advanced Video Coding
Duration : 42 min 17 s
Bit rate : 334 kb/s
Width : 854 pixels
Height : 480 pixels
Display aspect ratio : 16:9
Original display aspect ratio : 16:9
Frame rate mode : Variable
Frame rate : 23.976 (24000/1001) FPS
Minimum frame rate : 23.974 FPS
Maximum frame rate : 23.981 FPS
Color space : YUV
Chroma subsampling : 4:2:0
Bit depth : 8 bits
Scan type : Progressive
Bits/(Pixel*Frame) : 0.034
Stream size : 101 MiB (77%)
Writing library : x264 core 148 r2708 86b7198
Encoding settings : cabac=1 / ref=5 / deblock=1:0:0 / analyse=0x1:0x111 / me=umh / subme=8 / psy=1 / psy_rd=1.00:0.00 / mixed_ref=1 / me_range=16 / chroma_me=1 / trellis=1 / 8x8dct=0 / cqm=0 / deadzone=21,11 / fast_pskip=1 / chroma_qp_offset=-2 / threads=12 / lookahead_threads=2 / sliced_threads=0 / nr=0 / decimate=1 / interlaced=0 / bluray_compat=0 / constrained_intra=0 / bframes=3 / b_pyramid=2 / b_adapt=2 / b_bias=0 / direct=3 / weightb=1 / open_gop=0 / weightp=2 / keyint=240 / keyint_min=24 / scenecut=40 / intra_refresh=0 / rc_lookahead=50 / rc=crf / mbtree=1 / crf=24.0 / qcomp=0.60 / qpmin=0 / qpmax=69 / qpstep=4 / vbv_maxrate=20000 / vbv_bufsize=25000 / crf_max=0.0 / nal_hrd=none / filler=0 / ip_ratio=1.40 / aq=1:1.00

Audio
ID : 2
Format : AAC LC
Format/Info : Advanced Audio Codec Low Complexity
Codec ID : mp4a-40-2
Duration : 42 min 17 s
Bit rate mode : Variable
Bit rate : 96.0 kb/s
Channel(s) : 2 channels
Channel layout : L R
Sampling rate : 44.1 kHz
Frame rate : 43.066 FPS (1024 SPF)
Compression mode : Lossy
Stream size : 28.9 MiB (22%)
Title : Stereo / Stereo
Default : Yes

Text
ID : 3
Format : Timed Text
Muxing mode : sbtl
Codec ID : tx3g
Duration : 41 min 52 s
Bit rate mode : Variable
Bit rate : 80 b/s
Stream size : 24.7 KiB (0%)
Default : Yes
Forced : No


Download The.Purge.S01E08.480p.WEB.x264.ReEnc-LUMI torrent


Related Torrents

Added  Size  Health
Download Magnet link Browse TV torrent The.Purge.S01E08.WEB.x264-TBS[rartv] in TV - SD, by
Cristie
1m 589.6 MB 46 8
Download Magnet link Browse TV torrent The.Purge.S01E08.720p.WEB.x264-TBS[rartv] in TV - HD, by
Cristie
1m 787.6 MB 17 5
Download Magnet link Browse TV torrent The Purge S01E08 720p WEB x264-TBS [eztv] in TV - HD, by
EZTVag
1m 787.6 MB 100 9
Download Magnet link Browse TV torrent The.Purge.S01E08.720p.WEB.x264-TBS[TGx] in TV - HD, by
mazemaze16
1m 790.8 MB 3 6
Download Magnet link Browse TV torrent The Purge S01E08 WEB x264-TBS [eztv] in TV - Divx/Xvid, by
EZTVag
1m 589.6 MB 135 13



Comments   (please login to add your comment!)


Home - Browse Torrents

Made with love by an Extratorrent Fan!